諸神之錘 Hammer.Of.The.Gods.2013.HDRiP

  • 资源大小:
  • 资源类别:纪实
  • 支持语言:全部
  • 预览图片:无预览图
  • 资源格式:综合
  • 资源作者:网络
  • 更新时间:2013-6-2 8:27:47
  • 推荐指数:
  • 运行系统:全部型号
以下是资源列表 推荐使用 电驴 或 迅雷 进行下载
Hammer.of.the.Gods.2013.HDRip.XVID.AC3.HQ.Hive-CM8.avi 1.4GB
Hammer.Of.The.Gods.2013.HDRiP.XViD-AQOS.avi 723.5MB
资源简介
簡介:
◎譯  名 諸神之錘/霹靂雷神
◎片  名 Hammer of the Gods
◎年  代 2013
◎國  家 英國
◎類  别 動作
◎語  言 英語
◎字  幕 英語
◎IMDB評分 5.9/10 - 52
◎IMDB鏈接 http://www.imdb.com/title/tt2193418/
◎文件格式 XviD + AC3
◎視頻尺寸 720 × 304
◎文件大小 1.45 GB
◎片  長 98 mins
◎導  演 Farren Blackburn
◎主  演
查利·布雷Charlie Bewley....Steinar
克裏夫·斯丹頓Clive Standen....Hagen
詹姆斯·卡沙莫James Cosmo....King Bagsecg
艾略特·考萬Elliot Cowan....Hakan
Glynis Barber....Astrid
伊萬·凱伊Ivan Kaye....Ivar
Michael Jibson....Grim
Guy Flanagan....Jokul
Theo Barklem-Biggs....Vali
亞曆山德拉·道靈Alexandra Dowling....Agnes
Finlay Robertson....Harald
Michael Lindall....Saxon Leader
Francis Magee....Ulric
Fordham Susan....Viking Cave Dweller
Laura Sibbick....Saxon Woman
Gary Swan....Viking Cave Dweller
Maria Lee Metheringham....Female PICT
Lee p Carroll....Drummer
Michael St Omer....Viking Pict Guard
Gwilym Pugh....Pict Warrior
Carley Watts....Viking Woman (uncredited)
簡介
A high energy, high concept, stylish action epic set in the Norse world sees a passionate young man transform into a brutal warrior as he travels the unforgiving British landscape in search of his long lost brother Hakan The Ferrocious who his people are relying on to restore order to their kingdom following the bloody death of their king.
代碼Hammer.of.the.Gods.2013.HDRip.XVID.AC3.HQ.Hive-CM8
Source: 720p Itunes
Video.: 720×304 @bitrate 1700 2pass
Audio.: English AC3 5.1 @384
Sample: Yes, included
IMDb..: http://www.imdb.com/title/tt2193418/
ENCODE
quality was very nice, added brightness, sharpness and denoise
got very nice
enjoy
General
Complete name : Hammer.of.the.Gods.2013.HDRip.XVID.AC3.HQ.Hive-CM8.avi
Format : AVI
Format/Info : Audio Video Interleave
File size : 1.45 GiB
Duration : 1h 38mn
Overall bit rate : 2 093 Kbps
Writing application : Nandub v1.0rc2
Writing library : Nandub build 1853/release
Video
ID : 0
Format : MPEG-4 Visual
Format profile : Advanced Simple@L5
Format settings, BVOP : 2
Format settings, QPel : Yes
Format settings, GMC : No warppoints
Format settings, Matrix : Default (H.263)
Muxing mode : Packed bitstream
Codec ID : XVID
Codec ID/Hint : XviD
Duration : 1h 38mn
Bit rate : 1 700 Kbps
Width : 720 pixels
Height : 304 pixels
Display aspect ratio : 2.35:1
Frame rate : 23.976 fps
Color space : YUV
Chroma subsampling : 4:2:0
Bit depth : 8 bits
Scan type : Progressive
Compression mode : Lossy
Bits/(Pixel*Frame) : 0.324
Stream size : 1.17 GiB (81%)
Writing library : XviD 1.2.1 (UTC 2008-12-04)
Audio
ID : 1
Format : AC-3
Format/Info : Audio Coding 3
Mode extension : CM (complete main)
Format settings, Endianness : Big
Codec ID : 2000
Duration : 1h 38mn
Bit rate mode : Constant
Bit rate : 384 Kbps
Channel(s) : 6 channels
Channel positions : Front: L C R, Side: L R, LFE
Sampling rate : 48.0 KHz
Bit depth : 16 bits
Compression mode : Lossy
Stream size : 272 MiB (18%)
Alignment : Split accross interleaves
Interleave, duration : 42 ms (1.00 video frame)
Interleave, preload duration : 500 ms
http://www.imdb.com/title/tt2193418/
代碼TiTLE……..: Hammer.0f.theGods.2013.HDRip.XviD-AQOS
FORMAT…….: AVi
LENGTH…….: 1h 38mn
SiZE………: 723 MiB
TYPE………: HDRip
PROFiLE……: Advanced Simple@L5
RESOLUTiON…: 640 x 272 pixels
ASPECT RATiO.: 16:9
BiTRATE……: 1 022 Kbps
FRAMERATE….: 23.976 fps
SUBTITLE…..: English Sub Included
AUDiO……..: English MP3 2.0 @ 128 kbps
SOURCE…….: 720p Own
ENCODER……: Fury @ AQOS




http://www.imdb.com/title/tt2193418/
相关内容
语言: 英文 地区: 美国 图书分类: 科普 中文名: 网页设计师 - 2102 发行时间: 2012[查看详细]
语言: 英语 音乐风格: 摇滚 地区: 英国 简介: 资源码率:320k风 格:Acid Rock(酸性摇滚) Alternative (另类) Alternative Pop/Rock(另类流行/摇滚) Club/Dance(舞[查看详细]
语言: 繁体中文 地区: 台湾 简介: 【作品介绍】悠长的历史之中,人类曾一度因被巨人捕食而崩溃。幸存下来的人们建造了一面巨大的墙壁,防止了巨人的入侵。不过,作为「和平」的代价,人类失去了到墙壁的外面去这一「自由[查看详细]
电驴云下载 网站地图 最近更新 收藏本页 返回顶部
Copyright @ 电驴云下载 - www.verycd9.com All Rights Reserved
声明:本站内容来自网络,如有意见请与我们联系。谢谢!
95.4 毫秒 2017-08-18 11:07:18 357932