燭台背後 Behind.the.Candelabra.720p.HDTV

  • 资源大小:
  • 资源类别:动漫
  • 支持语言:全部
  • 预览图片:无预览图
  • 资源格式:综合
  • 资源作者:网络
  • 更新时间:2013-6-2 4:55:27
  • 推荐指数:
  • 运行系统:全部型号
以下是资源列表 推荐使用 电驴 或 迅雷 进行下载
Behind.the.Candelabra.720p.HDTV.x264-SYS[Qvocd.Org].mkv 2.5GB
资源简介
簡介:
◎譯  名 燭台背後/李伯拉斯
◎片  名 Behind the Candelabra
◎年  代 2013
◎國  家 美國
◎類  别 傳記/劇情/愛情
◎語  言 英語
◎字  幕 N/A
◎IMDB評分 7.0/10 - 2,394
◎IMDB鏈接 http://www.imdb.com/title/tt1291580/
◎文件格式 X264 + AC3
◎視頻尺寸 1280 x 720
◎文件大小 2.49 GB
◎片  長 118 Mins
◎導  演 史蒂文·索德伯格 StevenSoderbergh
◎主  演
馬特·達蒙Matt Damon....Scott Thorson
邁克爾·道格拉斯Michael Douglas....Liberace
羅伯·勞刀漀戀 Lowe....Dr. Jack Startz
丹·艾克羅伊德Dan Aykroyd....Seymour Heller
斯科特·巴庫拉勻挀漀琀琀 Bakula....Bob Black
Caroline Jaden Stussi....Startz Surgeon
黛比·雷諾斯Debbie Reynolds....Frances
馬克斯·納波利塔諾Max Napolitano....Bar Patron
波伊德·霍布魯克Boyd Holbrook
保羅·雷瑟倀愀甀氀 Reiser....Mr. Felder
尼基·凱特一椀挀欀礀 Katt....Mr. Y
夏安·傑克遜Cheyenne Jackson....Billy Leatherwood
艾迪·傑米森Eddie Jemison....Second Assistant Director
Kiff Vanden Heuvel....Wayne
Tom Papa....Ray Arnett
Deborah Lacey....Gladys
布魯斯·拉姆塞Bruce Ramsay....Carlucci
Lenny Jacobson....Stage Manager
蕾切爾·馬卡裏安刀愀挀栀愀攀氀 Markarian....Showgirl
Krystal Ellsworth....Impossible Dream Dancer
Casey Monnie....Young American Dancer
Stephanie Maura Sanchez....Second Anchorwoman
Thure Riefenstein....Maitre d'
Nellie Sciutto....Reporter
Becca Sweitzer....Showgirl
大衛·達斯汀·凱尼恩David Dustin Kenyon....Cameraman
Anthony Crivello....Stage hand
Roby Schinasi....French Guy #1
珍·莫裏斯Jane Morris....Rose
Gladis Giada....Boogie Woogie Concert Fan
Behind The Candelabra....Middle Aged Woman
Mike Jerome Putnam....On air news reporter
Jacquelyn Dowsett....Showgirl
Barbara Brownell....Angie Liberace
Eric Zuckerman....Schumacher
Brandon Henschel....Dancer
Derek Ferguson....Young American
Paul Witten....Liberace's Make-up Artist
Joe Filippone....Adult Bookstore Patron
Lance Bruyette....Sex couple #1
Francisco San Martin....Handsome Young Man
Corey Eid....French Guy #2
妮柯亞·甘比-特納一椀欀攀愀 Gamby-Turner....Dorothy
Pat Asanti....George liberace
Cassidy Noblett....Show Boy
Casey Kramer....Dora Liberace
Richard Allan Jones....Mourner
Anna Wendt....Stagehand
Eric Womack....Bartender
Kelly Allen....Young American Dancer
Kass Connors....Kazarian
Ryken Zane....Print Reporter
Jerry Clarke....Dr. Ronald Daniels
Aussie Guevara....Sex Club Worker
Lisa Frantz....Anchor Woman
Pat Destro
Jimmy Scanlon....News Reporter
Shant Benjamin....Raymond Carrillo (as Shaunt Benjamin)
Greg Baine....Patron
Kristin Lindquist....Billy
Ferly Prado....Dancer
Franklin J. Sterns....Bookstore Patron
Fielding Edlow....Deposition Reporter
Natacha Bachour....Showgirl
Dominique Kelley....Impossible Dream Dancer
Jack Fitz....Midwestern Husband
Nathan Collins....Print Reporter (rumored)
Kelli Erdmann....Young American Dancer
Paul McDade....Sex Club Worker
Trace Taylor....Stage hand - The Make up Artist
Gig Schmidt....Stagehand
Ryan Roth II....Stagehand
Kirk Krogstad....Theatre Stage Hand
Susan Todd....Middle Aged Woman
Gregg Atwill....Funeral Mourner
Lita S. Bowman....Mourner
Paul Borst....Party guest
Doug Hunter....Print Reporter
Russ Cugno....Mourner
Birgit Reichel....Sex couple #1
Todd Bradley....Boom operator
Dustin Hennick....Print Reporter
Michael McVay....News Reporter
Ryan Roth....Stagehand
卡珊德拉·M·貝蘭托尼 Cassandra M. Bellantoni....Hospital Visitor (uncredited)
Patty Chong....Concert Patron (uncredited)
Lee Christian....Sex Club Patron (uncredited)
Adam J. Kassel....Valet (uncredited)
Joan Riegert....Concert Fan (uncredited)
影片介紹
HBO電視電影《燭台背後》入圍第66屆戛納電影節主競賽單元。該片根據名人傳記改編,主人公李伯拉斯(邁克爾·道格拉斯 Michael Douglas 飾)是20世紀50~70年代好萊塢家喻戶曉的鋼琴藝術家,不但演出費用高居世界之冠,而且以極盡華冶豔麗的造型獲得了“閃耀之王 ”的舞台稱号。他從不承認自己是同性戀并爲此打過多起名譽官司,但在晚年卻不得不與22歲的男助手兼保镖斯科特(馬特·達蒙 Matt Damon 飾)對簿公堂。後者聲稱與他有着5年的地下情并主張天價的撫養費,該事件引發了美國娛樂圈的地震。1986年,雙方後來選擇庭外和解,斯科特·托馬森公開表示,他最終得到了95000美元的“補償”。1987年,李伯拉斯因愛滋病惡化去世,享年67歲。
電影從斯科特與李伯拉斯的相遇開始。初見面斯科特即被李伯拉斯出神入化的鋼琴演奏所迷倒,而李伯拉斯一句挑逗“這一定是命運”讓兩人火速定情。在無需面對公衆的時候,他們就像普通情侶那樣如膠似漆,過着童話般的奢華生活。然而斯科特獲得了女人們求而不得的愛情和物質保證,卻注定得不到一紙身份證明。這樣的遺憾不僅是時代偏見造成的,也有李伯拉斯自私和剛愎的原因。最終兩人因此而決裂,一代巨星的隐秘地下生活變成現實中被公衆觀摩的巨幕肥皂劇,一份真心付出的愛情最終輸給極力掩上的櫃門......

代碼D:\Behind.the.Candelabra.720p.HDTV.x264-SYS[Qvocd.Org].mkv
General
Unique ID : 41207302231730999877456263342554935282 (0x1F003CDBD804FE2AB169D343DEF8EFF2)
Complete name : D:\Behind.the.Candelabra.720p.HDTV.x264-SYS[Qvocd.Org].mkv
Format : Matroska
Format version : Version 2
File size : 2.49 GiB
Duration : 1h 58mn
Overall bit rate : 3 006 Kbps
Encoded date : UTC 2013-05-27 07:23:16
Writing application : mkvmerge v3.0.0 ('Hang up your Hang-Ups') built on Apr 19 2010 11:58:49
Writing library : libebml v0.7.7 + libmatroska v0.8.1
Video #1
ID : 1
Format : AVC
Format/Info : Advanced Video Codec
Format profile : High@L4.1
Format settings, CABAC : Yes
Format settings, ReFrames : 5 frames
Codec ID : V_MPEG4/ISO/AVC
Duration : 1h 58mn
Bit rate : 2 562 Kbps
Width : 1 280 pixels
Height : 720 pixels
Display aspect ratio : 16:9
Frame rate mode : Constant
Frame rate : 23.976 fps
Color space : YUV
Chroma subsampling : 4:2:0
Bit depth : 8 bits
Scan type : Progressive
Bits/(Pixel*Frame) : 0.116
Stream size : 2.12 GiB (85%)
Writing library : x264 core 133 r2334 a3ac64b
Encoding settings : cabac=1 / ref=5 / deblock=1:0:0 / analyse=0x3:0x113 / me=umh / subme=8 / psy=1 / psy_rd=1.00:0.00 / mixed_ref=1 / me_range=16 / chroma_me=1 / trellis=1 / 8x8dct=1 / cqm=0 / deadzone=21,11 / fast_pskip=1 / chroma_qp_offset=-2 / threads=12 / lookahead_threads=2 / sliced_threads=0 / nr=0 / decimate=1 / interlaced=0 / bluray_compat=0 / constrained_intra=0 / bframes=3 / b_pyramid=2 / b_adapt=2 / b_bias=0 / direct=3 / weightb=1 / open_gop=0 / weightp=2 / keyint=250 / keyint_min=23 / scenecut=40 / intra_refresh=0 / rc_lookahead=50 / rc=crf / mbtree=1 / crf=18.0 / qcomp=0.60 / qpmin=0 / qpmax=69 / qpstep=4 / ip_ratio=1.40 / aq=1:1.00
Language : English
Default : No
Forced : No
Audio #2
ID : 2
Format : AC-3
Format/Info : Audio Coding 3
Mode extension : CM (complete main)
Format settings, Endianness : Big
Codec ID : A_AC3
Duration : 1h 58mn
Bit rate mode : Constant
Bit rate : 384 Kbps
Channel(s) : 6 channels
Channel positions : Front: L C R, Side: L R, LFE
Sampling rate : 48.0 KHz
Bit depth : 16 bits
Compression mode : Lossy
Stream size : 325 MiB (13%)
Default : Yes
Forced : No
相关内容
语言: 简体中文 地区: 大陆 图书分类: 健康/两性 中文名: “偷懒”是个好习惯:掌控时间和生活的13条法则 [查看详细]
语言: 简体中文 地区: 大陆 图书分类: 政治/军事 中文名: 海峡:永不消停的水上通道 [查看详细]
语言: 简体中文 地区: 大陆 简介: 白盘同学们到评论一楼下载解压密码:http://shop35731822.taobao.com/作者简介北京博士德管理顾问有限公司高级讲师,玛雅房屋山东总部人力资源总监,青岛玛雅蓝海方略顾问有限公司总经理。本科毕[查看详细]
电驴云下载 网站地图 最近更新 收藏本页 返回顶部
Copyright @ 电驴云下载 - www.verycd9.com All Rights Reserved
声明:本站内容来自网络,如有意见请与我们联系。谢谢!
131.3 毫秒 2017-08-17 05:40:41 357932