死人的複仇 Dead.Man.Down.2013.DVDRiP

  • 资源大小:
  • 资源类别:公益
  • 支持语言:全部
  • 预览图片:无预览图
  • 资源格式:综合
  • 资源作者:网络
  • 更新时间:2013-6-2 23:46:41
  • 推荐指数:
  • 运行系统:全部型号
以下是资源列表 推荐使用 电驴 或 迅雷 进行下载
Dead.Man.Down.2013.DVDRiP.AAC.X264-OFFLiNE.mp4 1.4GB
资源简介
簡介:
http://player.youku.com/player.php/sid/XNDk2MTEyODMy/v.swf
◎譯  名 死人的複仇
◎片  名 Dead.Man.Down
◎年  代 2013
◎國  家 美國
◎類  别 動作/犯罪/劇情/驚悚
◎語  言 英語/法語/阿爾巴尼亞語/西班牙語
◎字  幕 N/A
◎IMDB評分 6.7/10 - 4,882
◎IMDB鏈接 http://www.imdb.com/title/tt2101341/
◎文件格式 X264 + AAC
◎視頻尺寸 720 x 304
◎文件大小 1.39 GB
◎片  長 114 Mins
◎導  演 涅爾斯·阿登·歐普勒夫一椀攀氀猀 Arden Oplev
◎主  演
柯林·法瑞爾Colin Farrell....Victor
勞米·拉佩斯一漀漀洀椀 Rapace....Beatrice
泰倫斯·霍華德吀攀爀爀攀渀挀攀 Dashon Howard....Alphonse
多米尼克·庫珀Dominic Cooper....Darcy
伊莎貝爾·于佩爾Isabelle Huppert....Valentine Louzon
Luis Da Silva Jr.....Terry
Stu Bennett....Kilroy
Franky G....Luco
Declan Mulvey....Goff
Johnny C.....Charles
LeRoy Wilson Jr.....Blotto (as Roy James Wilson, Jr.)
Myles Humphus....Lance
Stephen Hill....Roland
Aaron Vexler....Paul
James Biberi....Ilir
F·莫裏·亞伯拉罕F. Murray Abraham....Gregor
Andrew Stewart-Jones....Harry
Krystal Tini....Harry's Girl
William Zielenski....Alex
Jessica Wilson....Alex's Girl
Christopher Cline....Doctor
Kimberly S. Fairbanks....Nurse
Michael McKiddy....FedEx Guy
Beata Dalton....Anka (as Beata Alexandra Dalton)
Accalia Quintana....Delphine
J. Santiago....Latin Man
Maria Laboy....Matilde
Saul Stein....Andras
Roy Milton Davis....Derelict
阿曼德·阿山特Armand Assante....Lon Gordon
羅伯特·瓦泰刀漀戀攀爀琀 Vataj....Albanian Hostage
Jennifer Mudge....Florence
Giuseppe Bausilio....Teenager in Sunglasses
Thoreau Arden Pedersen....Teenager #1
Rachel Resheff....Teenager #2
Kahlil Middleton....Teenager #3
Jennifer Lee Wong....Client with One Eyebrow
Ante Novakovic....Peter
Kresimir Novakovic....Carl
Bobby Beckles....Harry's Jamaican #1
Raw Leiba....Harry's Jamaican #2
Hisham Tawfiq....Harry's Jamaican #3
Nnamdi Nwosa....Harry's Jamaican #4
R. Marcus Taylor....Harry's Jamaican #5
Jeremy Sample....Harry's Jamaican #6
John Wooten....Harry's Jamaican #7
Stephen Mann....Albanian #1
Aleksander Mici....Albanian #2
Stephen Esposito....Albanian #3
Adam Wood....Albanian #4
Tom Lamarche....Albanian #5
Steven Gagliano....Albanian #6
Gina Allegro....Business Woman (uncredited)
Dario Barosso....Street teen (uncredited)
Robert Bizik....Wall Street Executive (uncredited)
詹妮弗·維納Jennifer Wiener....Jeep Driver (uncredited)
Bill Chemerka....Albanian Elder (uncredited)
Michael Connolly....Standin-in for Robert Vataj (uncredited)
Christian Dorsey....Cab Driver (uncredited)
Cindy Engle....Pedestrian (uncredited)
Shawn Gonzalez....Stand-in for Luis Da Silva Jr (uncredited)
David Kneeream....Business Man (uncredited)
Michael J. Kraycik....Bar Patron (uncredited)
Raymond Mamrak....NYPD Officer Daniels (uncredited)
John Mitchell....Wall Street Executive (uncredited)
Justin S. Myrick....Street Teen (uncredited)
Mihir Pathak....Indian Cab Driver (uncredited)
Michelle Santiago....Train passenger (uncredited)
凱利·薩瑟蘭Kelly Southerland....Cemetary Driver (uncredited)
Aleksandra Svetlichnaya....Salon Customer (uncredited)
Joe Zarriello....Busboy (uncredited)
Aileen Zoccola....Screaming Girl (uncredited)
Heather Walker....Lise
影片介紹
在2009年憑借票房黑馬《龍紋身的女孩》一片而受到好萊塢矚目的丹麥導演涅爾斯·阿登·歐普勒夫将執導這部影片,有“愛爾蘭壞小子”之稱的科林·法瑞爾将擔任影片的男主角,和他搭檔的則是“龍紋身的女孩”勞米·拉佩斯,此片也是拉佩斯和阿登·歐普勒夫的二度合作。
維克多是黑幫界的一顆冉冉升起的新星。他冒着巨大的危險滲透進入了艾爾夫斯的犯罪帝國,不爲别的,就是爲了複仇。他的目的很簡單,就是把艾爾夫斯這個罪大惡極的犯罪頭子殺了,爲家人報仇。
與此同時,維克多知道一個女人正在暗中監視着他,這個漂亮的女人叫碧翠絲,住在維克多家對面的公寓樓上。碧翠絲的生活也并不美滿,充滿了各種黑暗。而她也在尋找自己的複仇的機會。既然兩個人都要複仇,那麽不如聯手合作。随後,這兩個人便展開了某種不爲錢不爲利的攜手複仇。
從此開始,碧翠絲和維克多走上了一條不歸路,并産生了一段若即若離的感情。而最重要的是,他們攜手走進了一個充滿暴力和黑暗的世界……
代碼Code: Select all





Genre : Action / Crime / Drama
Plot : Victor, a rising gangland player, has infiltrated the crime empire run by ruthless kingpin Alphonse, with the single purpose of making Alphonse pay for destroying his once happy life. As he meticulously orchestrates his vengeance from his high-rise home, Victor watches and is watched by Beatrice, a mysterious young woman who lives in the apartment across from his. On the surface a fragile woman-child, Beatrice seethes with a rage of her own. When she uncovers Victor’s dark secrets, she threatens to expose him unless he helps her carry out her own campaign of retribution. Each fixated on avenging the past, they devise a violent and cathartic plan that could change their worlds forever.
Format : MPEG-4
Format profile : Base Media
Codec ID : isom
File size : 1.39 GiB
Duration : 1h 54mn
Overall bit rate mode : Variable
Overall bit rate : 1 745 Kbps
Encoded date : UTC 2013-06-04 11:30:10
Tagged date : UTC 2013-06-04 11:30:10
Video
ID : 1
Format : AVC
Format/Info : Advanced Video Codec
Format profile : High@L4.1
Format settings, CABAC : Yes
Format settings, ReFrames : 3 frames
Codec ID : avc1
Codec ID/Info : Advanced Video Coding
Duration : 1h 54mn
Bit rate mode : Variable
Bit rate : 1 605 Kbps
Maximum bit rate : 40.0 Mbps
Width : 720 pixels
Height : 304 pixels
Display aspect ratio : 2.35:1
Frame rate mode : Constant
Frame rate : 23.976 fps
Color space : YUV
Chroma subsampling : 4:2:0
Bit depth : 8 bits
Scan type : Progressive
Bits/(Pixel*Frame) : 0.306
Stream size : 1.28 GiB (92%)
Writing library : x264 core 133 r2334 a3ac64b
Audio
ID : 2
Format : AAC
Format/Info : Advanced Audio Codec
Format profile : LC
Codec ID : 40
Duration : 1h 54mn
Bit rate mode : Variable
Bit rate : 137 Kbps
Maximum bit rate : 177 Kbps
Channel(s) : 2 channels
Channel positions : Front: L R
Sampling rate : 48.0 KHz
Compression mode : Lossy
Stream size : 112 MiB (8%)
Language : English
Encoded date : UTC 2013-06-03 23:24:02
Tagged date : UTC 2013-06-04 11:30:44
http://www.imdb.com/title/tt2101341/
相关内容
语言: 简体中文 地区: 大陆 图书分类: 网络 中文名: 深入体验VC++项目体验 发行[查看详细]
简介:年代:2012 类  型:动作/剧情/爱情地区:印度 制作公司:Vyjayanthi,Three Angels Studio Pvt. Ltd.语言:印度语 上映日期:2012-12-21 周五英文:Sarocharu 编剧:帕拉苏拉姆 导演:帕拉苏拉姆主演:拉维·特加 / 卡加·艾嘉 统计:24人订阅IMDB:http://www.imdb.com/title/tt2520342(5/10 from 44 users)简介:女学生桑迪雅疯狂地爱上了印裔意大利技师卡辛克。她决定跟随他去印度旅游,她相信[查看详细]
简介:导演: 布莱恩·辛格编剧: 达伦·莱姆克 / 克里斯托弗·麦奎里 / 丹·斯塔德尼 / 大卫·道金主演: 尼古拉斯·霍尔特 / 埃莉诺·汤姆林森 / 伊万·麦克格雷格 / 斯坦利·图齐 / 埃迪·马森 / 艾文·布莱纳 / 伊恩·麦柯肖恩 / 比尔·奈伊类型: 剧情 / 奇幻 / 冒险地区: 美国语言: 英语上映日期: 2013-03-25(中国大陆) / 2013-03-01(美国)片长: 114分钟又名: 杰克:巨魔猎人(港) / 杰克:巨人战纪([查看详细]
电驴云下载 网站地图 最近更新 收藏本页 返回顶部
Copyright @ 电驴云下载 - www.verycd9.com All Rights Reserved
声明:本站内容来自网络,如有意见请与我们联系。谢谢!
122.8 毫秒 2017-02-22 16:25:23 357932