純音樂 -《書房音樂》[APE]

  • 资源大小:
  • 资源类别:数码
  • 支持语言:全部
  • 预览图片:无预览图
  • 资源格式:综合
  • 资源作者:网络
  • 更新时间:2013-6-5 19:31:09
  • 推荐指数:
  • 运行系统:全部型号
以下是资源列表 推荐使用 电驴 或 迅雷 进行下载
純音樂.-.[書房音樂].專輯.(APE).ape 246.1MB
资源简介
專輯中文名: 書房音樂 發行時間: 2003年 資源格式: APE 專輯曲目: 01. 寫給海洋
02. 老鷹之聲
03. 上帝之歌
04. 湛藍的思緒
05. 綻放
06. 随想曲
07. 風過太平洋
08. 輪廓
09. 愛的浪漫史
10. 月光小夜曲
11. 娜塔夏
12. 石南之類
13. 森林中的一夜
14. 巴貝多的白沙 語言: 普通話 地區: 大陸 簡介:
白盤同學們到評論一樓下載 QQ交流群:194822257
本資源僅供預覽,請于下載24小時後删除,喜歡請購買正版!
專輯介紹:
假日周末的慵懶午後,或是溫馨浪漫的甯靜夜深,對自己好一點,放松一下。泡一杯咖啡或香茶,讓香味彌漫萦繞,然後找一本自己喜歡的好書,讓音樂氣氛伴讀,在優雅的音樂中求索,在文字的宮殿裏暢遊。人浸在音樂裏,文字如蜜汁般地緩緩流入心田。擺脫壓力的束縛,達到完美的松弛境地。
一張能讓您忘掉煩惱、忘掉寂寞、隻有音樂伴着你的,心情平靜、悅耳動聽的書房伴讀音樂,由鋼琴、吉它、長笛、堅琴等樂器打造。它沒有艱深難懂的音符組合,也沒有令人卻步的理論概念。選曲間所希望達成的效果,就是讓聽衆能夠輕松、沒有壓力的聆聽,去享受音樂的浪漫氛圍,享受屬于自己片刻的自在。
不同曲風的音樂編織出豐富感情的音樂理念,音樂與文字兩種不同形式的藝術結合,你會發現,這裏收藏了四季的感覺以及穿越古今的世界,是一種至高無上的精神享受。科學研究已證明,在音樂營造的優雅氛圍中閱讀和學習,有助于開啓兒童及成人的大腦潛能,全面提升記憶、理解、思維、審美等能力。
您想讓自己的孩子,從小在讀書中變得智商聰敏嗎?
您想讓自己變成書卷濃厚、風度翩翩的儒雅紳士嗎?
您想讓自己變成魅力内涵、矜持冷靓的恬淡淑女嗎?
讀書學習給自己充電的時候,試試這個書房音樂吧。
代碼REM DATE 2000
REM DISCID C20EAA0E
REM COMMENT "ExactAudioCopy v0.99pb4"
PERFORMER "linuxhua"
TITLE "書房音樂"
FILE "純音樂 - 書房音樂.ape" WAVE
TRACK 01 AUDIO
TITLE "寫給海洋"
PERFORMER "linuxhua"
INDEX 00 00:00:00
INDEX 01 00:00:01
TRACK 02 AUDIO
TITLE "老鷹之聲"
PERFORMER "linuxhua"
INDEX 01 04:24:54
TRACK 03 AUDIO
TITLE "上帝之歌"
PERFORMER "linuxhua"
INDEX 01 08:14:39
TRACK 04 AUDIO
TITLE "湛藍的思緒"
PERFORMER "linuxhua"
INDEX 01 11:49:27
TRACK 05 AUDIO
TITLE "綻放"
PERFORMER "linuxhua"
INDEX 01 16:00:15
TRACK 06 AUDIO
TITLE "随想曲"
PERFORMER "linuxhua"
INDEX 01 19:47:11
TRACK 07 AUDIO
TITLE "風過太平洋"
PERFORMER "linuxhua"
INDEX 01 23:48:01
TRACK 08 AUDIO
TITLE "輪廓"
PERFORMER "linuxhua"
INDEX 01 31:23:73
TRACK 09 AUDIO
TITLE "愛的浪漫史"
PERFORMER "linuxhua"
INDEX 01 38:44:01
TRACK 10 AUDIO
TITLE "月光小夜曲"
PERFORMER "linuxhua"
INDEX 01 41:04:00
TRACK 11 AUDIO
TITLE "娜塔夏"
PERFORMER "linuxhua"
INDEX 01 45:20:05
TRACK 12 AUDIO
TITLE "石南之類"
PERFORMER "linuxhua"
INDEX 01 48:59:07
TRACK 13 AUDIO
TITLE "森林中的一夜"
PERFORMER "linuxhua"
INDEX 01 53:58:69
TRACK 14 AUDIO
TITLE "巴貝多的白沙"
PERFORMER "linuxhua"
INDEX 01 57:31:59
相关内容
游戏类型: ACT 动作游戏 英文名称: Trine 2: Complete Story 地区: 美国 简介: 《三位一体2(Trine2)》是由Frozenbyte研发、ATLUS发行的横向滚动条动作游戏《三位一体》[查看详细]
专辑中文名: 大江光的音乐 语言: 英语 地区: 日本 简介: 发行厂牌:Columbia Music Japan演奏:Hikari Oe(大江光)专辑介绍:大江光,'94诺贝尔文学奖得主大江[查看详细]
语言: 简体中文 地区: 大陆 图书分类: 经济 中文名: 门口的野蛮人 史上最强悍的资本收购, [查看详细]
电驴云下载 网站地图 最近更新 收藏本页 返回顶部
Copyright @ 电驴云下载 - www.verycd9.com All Rights Reserved
声明:本站内容来自网络,如有意见请与我们联系。谢谢!
53.6 毫秒 2017-02-21 01:50:05 357932